[REL] Der Fluch (1988)

User avatar
Phuzzy4242
Site Admin
Posts: 7687
Likes:
Joined: Sun Aug 23, 2009 1:00 am

Re: [REQ] Der Fluch (1988)

Postby Phuzzy4242 » Mon Jan 23, 2012 5:10 am  4 likes

Der Fluch (1988)
The Curse
also called The Grudge

http://www.rarefilmfinder.com/showfilm.php?id=683
http://www.imdb.com/title/tt0095163/

[Image]

[Image][Image][Image]
[Image][Image][Image]

1 minute clip:

Entire Movie On YouTube: https://www.youtube.com/watch?v=n0Uip1lyPCQ

or watch the entire movie here:


I could download this from the library but it's 4500 miles to Marburg, Germany. :lol:
User avatar
ARTHORIUS
Posts: 3711
Likes:
Joined: Sun Mar 26, 2006 1:00 am

Re: [REQ] Der Fluch (1988)

Postby ARTHORIUS » Mon Feb 04, 2013 7:20 pm  29 likes

ONE RING TO BRING EM ALL
User avatar
Phuzzy4242
Site Admin
Posts: 7687
Likes:
Joined: Sun Aug 23, 2009 1:00 am

Re: [REQ] Der Fluch (1988)

Postby Phuzzy4242 » Tue Feb 05, 2013 12:03 am  1 likes

Thanks Art.
User avatar
kev
Site Admin
Posts: 3413
Likes:
Joined: Tue Jan 17, 2006 1:00 am

Re: [REQ] Der Fluch (1988)

Postby kev » Tue Feb 05, 2013 5:12 am  0 likes

Phuzzy4242 wrote:Thanks Art.


Yes, many thanks! I've been looking forward to this one... :thumbsup

(I guess we're waiting to make sure it's seeded before moving to [REL]? )

kev.
User avatar
Phuzzy4242
Site Admin
Posts: 7687
Likes:
Joined: Sun Aug 23, 2009 1:00 am

Re: [REQ] Der Fluch (1988)

Postby Phuzzy4242 » Tue Feb 05, 2013 7:50 am  0 likes

kev wrote:(I guess we're waiting to make sure it's seeded before moving to [REL]? )

kev.

Exactly. I added this 8 hours ago and still haven't seen any source at all. Art's had problems in the past with his connection so I think we should wait until someone has it complete, hmm?
User avatar
ARTHORIUS
Posts: 3711
Likes:
Joined: Sun Mar 26, 2006 1:00 am

Re: [REQ] Der Fluch (1988)

Postby ARTHORIUS » Tue Feb 05, 2013 7:16 pm  0 likes

About my connection...So i've been busy some hours on a day...and my parents don't like to see my pc "light on" without me then i must to be turn off when i am away for work (yes i live yet on my parents )
I try to help you all now i am here i put this in shared folders and try to stay online until 6.00 am of tomorrow now are 19.15 pm (Italy time)
ONE RING TO BRING EM ALL
User avatar
Phuzzy4242
Site Admin
Posts: 7687
Likes:
Joined: Sun Aug 23, 2009 1:00 am

Re: [REQ] Der Fluch (1988)

Postby Phuzzy4242 » Tue Feb 05, 2013 7:37 pm  1 likes

I'm not trying to criticize you, Art, I know you can't be online all the time, and that's cool, no problem, but since you're the only source and nobody as of last night had even seen this show up on eMule yet, it's only common sense to wait until it starts coming in before moving it to release. We appreciate your effort and anticipate seeing this film, we just want to avoid an "oops, not right now" if problems pop up.
User avatar
ptguardian
Posts: 4479
Likes:
Joined: Wed Sep 17, 2008 1:00 am

Re: [REQ] Der Fluch (1988)

Postby ptguardian » Sat Feb 09, 2013 1:22 pm  1 likes


https://youtu.be/n0Uip1lyPCQ

Our anonymous service is being blocked or is not working?
User avatar
emuler
Posts: 4368
Likes:
Joined: Sun Apr 02, 2006 1:00 am

Re: [REQ] Der Fluch (1988)

Postby emuler » Sat Feb 09, 2013 2:08 pm  1 likes

The server at anonym.to is still responding to pings, but that is about all. :( No news, though. Maybe it is down for maintenance.
User avatar
Phuzzy4242
Site Admin
Posts: 7687
Likes:
Joined: Sun Aug 23, 2009 1:00 am

Re: [REQ] Der Fluch (1988)

Postby Phuzzy4242 » Sat Feb 09, 2013 7:43 pm  15 likes

Here's the YouTube video ptg posted so we can at least get it moved to release. Hopefully someone can verify Arthorius' version too.

Spoiler:

General
Complete name : E:\MovieShare\Releases\Der Fluch (1988).flv
Format : Flash Video
File size : 375 MiB
Duration : 1h 28mn
Overall bit rate : 593 Kbps
httphostheader : r4---sn-p5qlsu7s.c.youtube.com

Video
Format : AVC
Format/Info : Advanced Video Codec
Format profile : Main@L3.0
Format settings, CABAC : Yes
Format settings, ReFrames : 3 frames
Format settings, GOP : M=1, N=25
Codec ID : 7
Duration : 1h 28mn
Bit rate : 456 Kbps
Width : 640 pixels
Height : 480 pixels
Display aspect ratio : 4:3
Frame rate mode : Constant
Frame rate : 25.000 fps
Color space : YUV
Chroma subsampling : 4:2:0
Bit depth : 8 bits
Scan type : Progressive
Bits/(Pixel*Frame) : 0.059
Stream size : 289 MiB (77%)

Audio
Format : AAC
Format/Info : Advanced Audio Codec
Format profile : LC
Codec ID : 10
Duration : 1h 28mn
Bit rate : 129 Kbps
Channel(s) : 2 channels
Channel positions : Front: L R
Sampling rate : 44.1 KHz
Compression mode : Lossy
Stream size : 81.5 MiB (22%)



Like this post to see ed2k links  [375.29 Mb]

Who is online

Users browsing this forum: manuel567c and 2 guests