[REL] Kaoma - Lambada

Information about music videos that fit the genre of FLM can be posted here.
User avatar
Phuzzy4242
Site Admin
Posts: 7687
Likes:
Joined: Sun Aug 23, 2009 1:00 am

Re: kaoma - lambada

Postby Phuzzy4242 » Sat Jul 31, 2010 5:01 pm  0 likes

For those who like a Japanese flavor... http://www.youtube.com/watch?v=1popwWI5 ... re=related
ardnasnaf01
Posts: 17
Likes:
Joined: Tue Jun 21, 2011 1:00 am

Re: kaoma - lambada

Postby ardnasnaf01 » Fri Jun 24, 2011 6:24 am  0 likes

User avatar
Phuzzy4242
Site Admin
Posts: 7687
Likes:
Joined: Sun Aug 23, 2009 1:00 am

Re: kaoma - lambada

Postby Phuzzy4242 » Sat Jun 25, 2011 12:00 am  16 likes

Singing and dancing along with other kids their age. :drool

Like this post to see ed2k links  [8.73 Mb]
User avatar
Pardal2008
Posts: 340
Likes:
Joined: Wed Feb 22, 2012 10:23 pm

Re: kaoma - lambada

Postby Pardal2008 » Mon May 21, 2012 9:39 pm  0 likes

I have not seen this clip 10 years.
Thanks for the reminder.
Also one of my loves. ;)
Pardal
All the little girls are in love only to me
User avatar
Phuzzy4242
Site Admin
Posts: 7687
Likes:
Joined: Sun Aug 23, 2009 1:00 am

Re: [REL] Kaoma - Lambada

Postby Phuzzy4242 » Mon Jun 11, 2012 10:04 pm  0 likes

I ran across these pix on an old hard drive (saved in 2000)...

[Image][Image][Image][Image][Image]
User avatar
ptguardian
Posts: 4479
Likes:
Joined: Wed Sep 17, 2008 1:00 am

Re: [REL] Kaoma - Lambada

Postby ptguardian » Tue Jun 12, 2012 6:10 am  0 likes

Definitely an interesting couple... :D

I found a site that follows young singers and is worth a look see for other little gems for FLM. ;)

kidsvocal
User avatar
Phuzzy4242
Site Admin
Posts: 7687
Likes:
Joined: Sun Aug 23, 2009 1:00 am

Re: [REL] Kaoma - Lambada

Postby Phuzzy4242 » Tue Jul 07, 2020 4:57 am  19 likes

Here's a little better quality.
Spoiler:

General
Complete name : K:\Online\Releases\Kaoma - Lambada (1989) 720p.mp4
Format : MPEG-4
Format profile : Base Media
Codec ID : isom (isom/iso2/avc1/mp41)
File size : 113 MiB
Duration : 3 min 21 s
Overall bit rate : 4 729 kb/s
Writing application : Lavf54.29.104

Video
ID : 1
Format : AVC
Format/Info : Advanced Video Codec
Format profile : High@L3.1
Format settings : CABAC / 2 Ref Frames
Format settings, CABAC : Yes
Format settings, Reference frames : 2 frames
Codec ID : avc1
Codec ID/Info : Advanced Video Coding
Duration : 3 min 21 s
Bit rate : 4 582 kb/s
Width : 1 280 pixels
Height : 720 pixels
Display aspect ratio : 16:9
Frame rate mode : Constant
Frame rate : 25.000 FPS
Color space : YUV
Chroma subsampling : 4:2:0
Bit depth : 8 bits
Scan type : Progressive
Bits/(Pixel*Frame) : 0.199
Stream size : 110 MiB (97%)
Writing library : x264 core 106
Encoding settings : cabac=1 / ref=2 / deblock=0:0:0 / analyse=0x3:0x113 / me=dia / subme=7 / psy=1 / psy_rd=0.00:0.00 / mixed_ref=0 / me_range=16 / chroma_me=0 / trellis=1 / 8x8dct=1 / cqm=0 / deadzone=21,21 / fast_pskip=1 / chroma_qp_offset=0 / threads=12 / sliced_threads=0 / nr=0 / decimate=0 / interlaced=0 / constrained_intra=0 / bframes=2 / b_pyramid=0 / b_adapt=0 / b_bias=0 / direct=0 / weightb=0 / open_gop=0 / weightp=0 / keyint=500 / keyint_min=100 / scenecut=40 / intra_refresh=0 / rc=crf / mbtree=0 / crf=20.0 / qcomp=0.60 / qpmin=10 / qpmax=51 / qpstep=4 / ip_ratio=1.40 / pb_ratio=1.30 / aq=0
Codec configuration box : avcC

Audio
ID : 2
Format : AAC LC
Format/Info : Advanced Audio Codec Low Complexity
Codec ID : mp4a-40-2
Duration : 3 min 21 s
Bit rate mode : Constant
Bit rate : 140 kb/s
Channel(s) : 2 channels
Channel layout : L R
Sampling rate : 48.0 kHz
Frame rate : 46.875 FPS (1024 SPF)
Compression mode : Lossy
Stream size : 3.36 MiB (3%)
Default : Yes
Alternate group : 1

Like this post to see ed2k links  [113.36 Mb]
User avatar
Nasuada
Posts: 153
Likes:
Joined: Sat Jun 06, 2020 1:05 pm

Re: [REL] Kaoma - Lambada

Postby Nasuada » Wed Jul 08, 2020 10:15 pm  0 likes

Nice to get it in a better quality... Thanks. I watcher it over YT in the past, but it's a poor quality there.
User avatar
Phuzzy4242
Site Admin
Posts: 7687
Likes:
Joined: Sun Aug 23, 2009 1:00 am

Re: [REL] Kaoma - Lambada

Postby Phuzzy4242 » Thu Jul 09, 2020 4:48 am  0 likes

Not the best but it's 16:9 and higher bitrate.
User avatar
Triela
Posts: 57
Likes:
Joined: Sun Jul 05, 2020 3:42 pm

Re: kaoma - lambada

Postby Triela » Thu Jul 09, 2020 6:23 am  0 likes

Phuzzy4242 wrote:Roberta de Brito, born April 27, 1979. That means she was only 10 if the video was made in 1989... :think

[Image]

She does kinda look 10 years old. It's possible I do remember 10 year old girls looking like that.

Who is online

Users browsing this forum: No registered users and 9 guests